Donanım Haber

Uygulama ile Aç
Kayıt
S

Teğmen
22 Nisan 2016
Tarihinde Katıldı
Takip Ettikleri
2 üye
Görüntülenme (?)
48 (Bu ay: 1)
Gönderiler Hakkında
S
2 yıl
Lpg vs elektrikli/hermetik şofben
Merhabalar öğrenci evindeyim. Suya doğalgaz çekilmemiş. Banyoda elektrikli şofben balkonda da demirdöküm 275 hermetik sofben var tüpe ayarlı. Acaba hangisini kullanmam daha tasarruflu olur bir tavsiyeniz var mı?
S
2 yıl
Fiber ISS önerisi ve kurulum ücreti sorunu
Merhabalar. Forumun bayaa sayfasını inceledim ama tatmin edecek herhangi bir bilgiye ulaşamadım. Binamda Türk telekom fiber altyapısı mevcut. Millennicom Oris ve Netspeed şirketlerinden birini düşünüyordum ama 10tl kira bedeli + kurulum ücretleri (orisin tabi aktivasyon vs ücretleride mevcut) beni geriyor. Önerilerinizi alabilir miyim?
S
3 yıl
Sitede aldığım ceza
Tam olarak ne anlama geliyor ben çözemedim problem nedir yani adminler keyfii ceza verebiliyor mu böyle ne güzel


S
4 yıl
MAĞAZA İÇİN VERESİYE PROGRAMI ARIYORUM
Internette dolastim hic bulamadim bulduklarimda istedigim gibi çıkmadı .
Musteri bilgileri girebilecegim her musterinin de urun ve gelir gider hesabinin olacagi odeme geciktigi anda mesaj gonderen haber veren sistem ariyorum ucretli de olur
S
4 yıl
Elektro gitar tavsiyesi
Indie rock - alternative rock tarzlarım. Öğrenciyim 600tlye kadar bütçem var. Önerebileceginiz gitar tavsiyelerinizi bekliyorum .
Dinledikerim; muse . Arctic monkeys. Red hot chili peppers
S
4 yıl
Hem vdsl hem ap router modem tavsiye ?
Üniversite ogrencisiyim net baglattigim icin vdsl almam gerekiyor. Interneti karşılayamadigim zamanlarda yan dairemden cekmek icin menzil guclendirici de lazim. Ikisinin birlikte olduğu güzel bir modem onerebilir misiniz ?
S
5 yıl
19.01 kuponum yorum bekliyorum


kasa basılır mı arkadaşlar
S
5 yıl
Max 2000TL öğrenci laptop tavsiyeleri bekliyorum
S
5 yıl
TV aynı uzantılı videoyu açmıyor
Görseldeki dizilerim tüm sezonlarını indirdim tv miz normalde mkv çalıştırıyor yardımcı olursanız sevinirim moralim bozuldu o kadar indirdikten sonra çalıştırmamasına



General 
Unique ID : 161262604219698487276104704068615255841 (0x79520C3F16BAA903E7EE86E51C89B721)
Complete name : D:\dizi\TLMOE\s1\TLMOE S1.E1.mkv
Format : Matroska
Format version : Version 2
File size : 200 MiB
Duration : 45 min
Overall bit rate : 622 kb/s
Writing application : HandBrake 6548svn 2014112401
Writing library : Lavf55.12.0 / Lavf55.12.0

Video
ID : 1
Format : HEVC
Format/Info : High Efficiency Video Coding
Format profile : Main@L3.1@Main
Codec ID : V_MPEGH/ISO/HEVC
Duration : 45 min
Width : 1 280 pixels
Height : 720 pixels
Display aspect ratio : 16:9
Frame rate mode : Constant
Frame rate : 23.976 (24000/1001) FPS
Color space : YUV
Chroma subsampling : 4:2:0
Bit depth : 8 bits
Writing library : x265 1.4:[Windows][GCC 4.9.0][64 bit]
Encoding settings : wpp / ctu=64 / tu-intra-depth=1 / tu-inter-depth=1 / me=1 / subme=2 / merange=57 / no-rect / no-amp / max-merge=2 / temporal-mvp / no-early-skip / no-fast-cbf / rdpenalty=0 / no-tskip / no-tskip-fast / strong-intra-smoothing / no-lossless / no-cu-lossless / no-constrained-intra / no-fast-intra / open-gop / interlace=0 / keyint=240 / min-keyint=24 / scenecut=40 / rc-lookahead=20 / bframes=4 / bframe-bias=0 / b-adapt=2 / ref=3 / weightp / no-weightb / aq-mode=2 / aq-strength=1.00 / cbqpoffs=0 / crqpoffs=0 / rd=3 / psy-rd=0.00 / psy-rdoq=0.00 / signhide / lft / sao / no-sao-non-deblock / b-pyramid / cutree / rc=2 / pass / bitrate=555 / ratetol=1.0 / qcomp=0.60 / qpmin=0 / qpmax=51 / qpstep=4 / cplxblur=20.0 / qblur=0.5 / ipratio=1.40 / pbratio=1.30
Default : Yes
Forced : No
Color range : Limited
Color primaries : BT.709
Transfer characteristics : BT.709
Matrix coefficients : BT.709

Audio
ID : 2
Format : AAC
Format/Info : Advanced Audio Codec
Format profile : HE-AAC / LC
Codec ID : A_AAC
Duration : 45 min
Channel(s) : 2 channels
Channel positions : Front: L R
Sampling rate : 48.0 kHz / 24.0 kHz
Frame rate : 23.438 FPS (1024 spf)
Compression mode : Lossy
Delay relative to video : -105 ms
Title : Stereo
Language : English
Default : Yes
Forced : No




General 
Unique ID : 184919902631958724180323934846495726297 (0x8B1E471C89BDDA1DBC242615F48F9AD9)
Complete name : C:\Users\oyucupc\Desktop\Yeni klasör\cezaci_-_One_Piece_-_222_-_RAW_-_1280x720.mkv
Format : Matroska
Format version : Version 4 / Version 2
File size : 130 MiB
Duration : 23 min
Overall bit rate mode : Variable
Overall bit rate : 771 kb/s
Encoded date : UTC 2013-08-22 00:15:51
Writing application : mkvmerge v6.3.0 ('You can't stop me!') built on Jun 28 2013 20:09:41
Writing library : libebml v1.3.0 + libmatroska v1.4.0

Video
ID : 1
Format : AVC
Format/Info : Advanced Video Codec
Format profile : High@L5
Format settings, CABAC : Yes
Format settings, ReFrames : 16 frames
Codec ID : V_MPEG4/ISO/AVC
Duration : 23 min
Bit rate : 660 kb/s
Width : 1 280 pixels
Height : 720 pixels
Display aspect ratio : 16:9
Frame rate mode : Constant
Frame rate : 23.976 (24000/1001) FPS
Color space : YUV
Chroma subsampling : 4:2:0
Bit depth : 8 bits
Scan type : Progressive
Bits/(Pixel*Frame) : 0.030
Stream size : 111 MiB (86%)
Writing library : x264 core 133 r2334 a3ac64b
Encoding settings : cabac=1 / ref=16 / deblock=1:1:1 / analyse=0x3:0x133 / me=umh / subme=10 / psy=1 / psy_rd=0.40:0.00 / mixed_ref=1 / me_range=24 / chroma_me=1 / trellis=2 / 8x8dct=1 / cqm=0 / deadzone=21,11 / fast_pskip=1 / chroma_qp_offset=-2 / threads=3 / lookahead_threads=1 / sliced_threads=0 / nr=0 / decimate=1 / interlaced=0 / bluray_compat=0 / constrained_intra=0 / bframes=10 / b_pyramid=2 / b_adapt=2 / b_bias=0 / direct=3 / weightb=1 / open_gop=0 / weightp=2 / keyint=240 / keyint_min=23 / scenecut=40 / intra_refresh=0 / rc_lookahead=60 / rc=crf / mbtree=1 / crf=25.0 / qcomp=0.60 / qpmin=0 / qpmax=69 / qpstep=4 / ip_ratio=1.40 / aq=1:0.60[simage]https://store.donanimhaber.com/88/e4/76/88e476c4b25ac67add60b552a2542efa.JPG[/simage]



Görseldeki dizilerim tüm sezonlarını indirdim tv miz normalde mkv çalıştırıyor yardımcı olursanız sevinirim moralim bozuldu o kadar indirdikten sonra çalıştırmamasına
S
5 yıl
TV videoyu çalıştırmıyor
Görseldeki dizilerim tüm sezonlarını indirdim tv miz normalde mkv çalıştırıyor yardımcı olursanız sevinirim moralim bozuldu o kadar indirdikten sonra çalıştırmamasına



General 
Unique ID : 161262604219698487276104704068615255841 (0x79520C3F16BAA903E7EE86E51C89B721)
Complete name : D:\dizi\TLMOE\s1\TLMOE S1.E1.mkv
Format : Matroska
Format version : Version 2
File size : 200 MiB
Duration : 45 min
Overall bit rate : 622 kb/s
Writing application : HandBrake 6548svn 2014112401
Writing library : Lavf55.12.0 / Lavf55.12.0

Video
ID : 1
Format : HEVC
Format/Info : High Efficiency Video Coding
Format profile : Main@L3.1@Main
Codec ID : V_MPEGH/ISO/HEVC
Duration : 45 min
Width : 1 280 pixels
Height : 720 pixels
Display aspect ratio : 16:9
Frame rate mode : Constant
Frame rate : 23.976 (24000/1001) FPS
Color space : YUV
Chroma subsampling : 4:2:0
Bit depth : 8 bits
Writing library : x265 1.4:[Windows][GCC 4.9.0][64 bit]
Encoding settings : wpp / ctu=64 / tu-intra-depth=1 / tu-inter-depth=1 / me=1 / subme=2 / merange=57 / no-rect / no-amp / max-merge=2 / temporal-mvp / no-early-skip / no-fast-cbf / rdpenalty=0 / no-tskip / no-tskip-fast / strong-intra-smoothing / no-lossless / no-cu-lossless / no-constrained-intra / no-fast-intra / open-gop / interlace=0 / keyint=240 / min-keyint=24 / scenecut=40 / rc-lookahead=20 / bframes=4 / bframe-bias=0 / b-adapt=2 / ref=3 / weightp / no-weightb / aq-mode=2 / aq-strength=1.00 / cbqpoffs=0 / crqpoffs=0 / rd=3 / psy-rd=0.00 / psy-rdoq=0.00 / signhide / lft / sao / no-sao-non-deblock / b-pyramid / cutree / rc=2 / pass / bitrate=555 / ratetol=1.0 / qcomp=0.60 / qpmin=0 / qpmax=51 / qpstep=4 / cplxblur=20.0 / qblur=0.5 / ipratio=1.40 / pbratio=1.30
Default : Yes
Forced : No
Color range : Limited
Color primaries : BT.709
Transfer characteristics : BT.709
Matrix coefficients : BT.709

Audio
ID : 2
Format : AAC
Format/Info : Advanced Audio Codec
Format profile : HE-AAC / LC
Codec ID : A_AAC
Duration : 45 min
Channel(s) : 2 channels
Channel positions : Front: L R
Sampling rate : 48.0 kHz / 24.0 kHz
Frame rate : 23.438 FPS (1024 spf)
Compression mode : Lossy
Delay relative to video : -105 ms
Title : Stereo
Language : English
Default : Yes
Forced : No




General 
Unique ID : 184919902631958724180323934846495726297 (0x8B1E471C89BDDA1DBC242615F48F9AD9)
Complete name : C:\Users\oyucupc\Desktop\Yeni klasör\cezaci_-_One_Piece_-_222_-_RAW_-_1280x720.mkv
Format : Matroska
Format version : Version 4 / Version 2
File size : 130 MiB
Duration : 23 min
Overall bit rate mode : Variable
Overall bit rate : 771 kb/s
Encoded date : UTC 2013-08-22 00:15:51
Writing application : mkvmerge v6.3.0 ('You can't stop me!') built on Jun 28 2013 20:09:41
Writing library : libebml v1.3.0 + libmatroska v1.4.0

Video
ID : 1
Format : AVC
Format/Info : Advanced Video Codec
Format profile : High@L5
Format settings, CABAC : Yes
Format settings, ReFrames : 16 frames
Codec ID : V_MPEG4/ISO/AVC
Duration : 23 min
Bit rate : 660 kb/s
Width : 1 280 pixels
Height : 720 pixels
Display aspect ratio : 16:9
Frame rate mode : Constant
Frame rate : 23.976 (24000/1001) FPS
Color space : YUV
Chroma subsampling : 4:2:0
Bit depth : 8 bits
Scan type : Progressive
Bits/(Pixel*Frame) : 0.030
Stream size : 111 MiB (86%)
Writing library : x264 core 133 r2334 a3ac64b
Encoding settings : cabac=1 / ref=16 / deblock=1:1:1 / analyse=0x3:0x133 / me=umh / subme=10 / psy=1 / psy_rd=0.40:0.00 / mixed_ref=1 / me_range=24 / chroma_me=1 / trellis=2 / 8x8dct=1 / cqm=0 / deadzone=21,11 / fast_pskip=1 / chroma_qp_offset=-2 / threads=3 / lookahead_threads=1 / sliced_threads=0 / nr=0 / decimate=1 / interlaced=0 / bluray_compat=0 / constrained_intra=0 / bframes=10 / b_pyramid=2 / b_adapt=2 / b_bias=0 / direct=3 / weightb=1 / open_gop=0 / weightp=2 / keyint=240 / keyint_min=23 / scenecut=40 / intra_refresh=0 / rc_lookahead=60 / rc=crf / mbtree=1 / crf=25.0 / qcomp=0.60 / qpmin=0 / qpmax=69 / qpstep=4 / ip_ratio=1.40 / aq=1:0.60[simage]https://store.donanimhaber.com/88/e4/76/88e476c4b25ac67add60b552a2542efa.JPG[/simage]



Sorun uzantıdan kaynaklı değil One Piece diziside mkv ama çalıştırıyor
DH Mobil uygulaması ile devam edin.
Mobil tarayıcınız ile mümkün olanların yanı sıra, birçok yeni ve faydalı özelliğe erişin.
Gizle ve güncelleme çıkana kadar tekrar gösterme.